<?xml version="1.0" standalone="no"?>
<!DOCTYPE svg PUBLIC "-//W3C//DTD SVG 1.1//EN" "http://www.w3.org/Graphics/SVG/1.1/DTD/svg11.dtd" >
<svg xmlns="http://www.w3.org/2000/svg">
<metadata>Generated by IcoMoon</metadata>
<defs>
<font id="icomoon" horiz-adv-x="1024">
<font-face units-per-em="1024" ascent="896" descent="-128" />
<missing-glyph horiz-adv-x="1024" />
<glyph unicode="&#x20;" horiz-adv-x="400" d="" />
<glyph unicode="&#xe900;" d="M560 416l153.6 115.2c25.6 19.2 38.4 48 38.4 76.8v176h-480v-176c0-28.8 12.8-57.6 38.4-76.8l153.6-115.2v-64l-153.6-115.2c-25.6-19.2-38.4-48-38.4-76.8v-176h480v176c0 28.8-12.8 57.6-38.4 76.8l-153.6 115.2v64z" />
<glyph unicode="&#xe901;" d="M400 736h352v48h-480v-176c0-28.8 12.8-57.6 38.4-76.8l153.6-115.2v-64l-153.6-115.2c-25.6-19.2-38.4-48-38.4-76.8v-176h64v176c0 28.8 12.8 57.6 38.4 76.8l153.6 115.2v64l-153.6 115.2c-25.6 19.2-38.4 48-38.4 76.8v64c0 35.2 28.8 64 64 64z" />
<glyph unicode="&#xe902;" d="M560 416l153.6 115.2c25.6 19.2 38.4 48 38.4 76.8v16h-480v-16c0-28.8 12.8-57.6 38.4-76.8l153.6-115.2v-64h96v64z" />
<glyph unicode="&#xe903;" d="M752 784h-480c-19.2 0-32 12.8-32 32s12.8 32 32 32h480c19.2 0 32-12.8 32-32s-12.8-32-32-32z" />
<glyph unicode="&#xe904;" d="M272 624h480zM464 352h96zM512 336v-192zM464 416h96z" />
<glyph unicode="&#xe905;" d="M752-80h-480c-19.2 0-32 12.8-32 32s12.8 32 32 32h480c19.2 0 32-12.8 32-32s-12.8-32-32-32z" />
<glyph unicode="&#xe906;" d="M272 32v-48h480v48c0 28.8-19.2 54.4-48 60.8l-192 51.2-192-51.2c-28.8-6.4-48-32-48-60.8z" />
<glyph unicode="&#xe907;" d="M374.4 531.2c-25.6 19.2-38.4 48-38.4 76.8v16h-64v-16c0-28.8 12.8-57.6 38.4-76.8l153.6-115.2v-64h64v64l-153.6 115.2z" />
<glyph unicode="&#xe908;" d="M304 816c0 19.2 12.8 32 32 32h-64c-19.2 0-32-12.8-32-32s12.8-32 32-32h64c-19.2 0-32 12.8-32 32zM304-48c0 19.2 12.8 32 32 32h-64c-19.2 0-32-12.8-32-32s12.8-32 32-32h64c-19.2 0-32 12.8-32 32z" />
<glyph unicode="&#xe909;" d="M752 32h-416c0 28.8 19.2 54.4 48 60.8l160 41.6-32 9.6-192-51.2c-28.8-6.4-48-32-48-60.8v-48h480v48z" />
<glyph unicode="&#xe90a;" d="M512 128c-9.6 0-16 6.4-16 16v192c0 9.6 6.4 16 16 16s16-6.4 16-16v-192c0-9.6-6.4-16-16-16z" />
<glyph unicode="&#xe90b;" d="M976 384c0-238.588-193.412-432-432-432-0.123 0-0.268 0-0.413 0-135.222 0-255.905 62.246-334.958 159.649l-0.628 0.8c-60.038 74.196-48 168.674-48 271.552 0 95.82-16.8 184.356 35.988 256 79.416 107.241 205.512 176 347.666 176 0.122 0 0.243 0 0.364 0h-0.019c238.588 0 432-193.412 432-432z" />
<glyph unicode="&#xe90c;" d="M912 384c0-203.241-164.759-368-368-368s-368 164.759-368 368c0 203.241 164.759 368 368 368s368-164.759 368-368z" />
<glyph unicode="&#xe90d;" d="M144 688h256v-384h-256z" />
<glyph unicode="&#xe90e;" d="M80 304h272v-384h-272z" />
<glyph unicode="&#xe90f;" d="M352 304h272v-384h-272z" />
<glyph unicode="&#xe910;" d="M192-80h160v320c0 13.255-10.745 24-24 24v0c-13.255 0-24-10.745-24-24v0-248c0-13.255-10.745-24-24-24v0h-88c-13.255 0-24-10.745-24-24v0c0-13.255 10.745-24 24-24v0z" />
<glyph unicode="&#xe911;" d="M464-80h160v320c0 13.255-10.745 24-24 24v0c-13.255 0-24-10.745-24-24v0-248c0-13.255-10.745-24-24-24v0h-88c-13.255 0-24-10.745-24-24v0c0-13.255 10.745-24 24-24v0z" />
<glyph unicode="&#xe912;" d="M240 304h160v320c0 13.255-10.745 24-24 24v0c-13.255 0-24-10.745-24-24v0-248c0-13.255-10.745-24-24-24v0h-88c-13.255 0-24-10.745-24-24v0c0-13.255 10.745-24 24-24v0z" />
<glyph unicode="&#xe913;" d="M96 704h352v-32h-352z" />
<glyph unicode="&#xe914;" d="M96 512h352v-32h-352z" />
<glyph unicode="&#xe915;" d="M32 320h640v-32h-640z" />
<glyph unicode="&#xe916;" d="M32 128h640v-32h-640z" />
<glyph unicode="&#xe917;" d="M32-64h640v-32h-640z" />
<glyph unicode="&#xe918;" d="M528 704h32v-32h-32z" />
<glyph unicode="&#xe919;" d="M785.388 226.154l15.999 27.71 27.71-15.999-15.999-27.71z" />
<glyph unicode="&#xe91a;" d="M832 400h32v-32h-32z" />
<glyph unicode="&#xe91b;" d="M785.398 541.84l27.71 15.999 15.999-27.71-27.71-15.999z" />
<glyph unicode="&#xe91c;" d="M674.124 641.413l15.999 27.71 27.71-15.999-15.999-27.71z" />
<glyph unicode="&#xe91d;" d="M544 368c-8.837 0-16 7.163-16 16v0 240h32v-212.288l142.278 82.144 16-27.712-166.278-96c-2.293-1.348-5.051-2.144-7.995-2.144-0.002 0-0.004 0-0.005 0v0z" />
<glyph unicode="&#xe91e;" d="M544 256h448v-352h-448z" />
<glyph unicode="&#xe91f;" d="M224 544h32c-44.8 0-83.2-26.080-101.12-64h-106.88c-8.8 0-16 7.2-16 16v32c0 8.8 7.2 16 16 16h48z" />
<glyph unicode="&#xe920;" d="M352 544h624c8.8 0 16-7.2 16-16v-32c0-8.8-7.2-16-16-16h-618.88c-17.92 37.92-56.32 64-101.12 64z" />
<glyph unicode="&#xe921;" d="M80 32l0.48 1.92c4.96-1.28 10.24-1.92 15.52-1.92h80v-128h-96z" />
<glyph unicode="&#xe922;" d="M256 320c123.68 0 224-100.32 224-224v-192h-80v240l-80 80h-144v-112h-143.36c3.84 55.36 28 105.28 64.96 142.4 40.64 40.48 96.64 65.6 158.4 65.6z" />
<glyph unicode="&#xe923;" d="M400 144v-240h-224v128h72c11.040 0 21.12 4.48 28.32 11.68s11.68 17.28 11.68 28.32c0 22.080-17.92 40-40 40h-72v112h144v-80z" />
<glyph unicode="&#xe924;" d="M400 144h-80v80z" />
<glyph unicode="&#xe925;" d="M248 112c22.080 0 40-17.92 40-40 0-11.040-4.48-21.12-11.68-28.32s-17.28-11.68-28.32-11.68h-152c-5.28 0-10.56 0.64-15.52 1.92-27.84 6.88-48.48 32.16-48.48 62.080 0 5.44 0.16 10.72 0.64 16h143.36z" />
<glyph unicode="&#xe926;" d="M357.12 480c7.040-14.56 10.88-30.72 10.88-48 0-61.92-50.080-112-112-112s-112 50.080-112 112c0 17.28 3.84 33.44 10.88 48 17.92 37.92 56.32 64 101.12 64s83.2-26.080 101.12-64z" />
<glyph unicode="&#xe927;" d="M544 864h384v-320h-384z" />
<glyph unicode="&#xe928;" d="M96 864h384v-320h-384z" />
<glyph unicode="&#xe929;" d="M352 608v-64h-128v64z" />
<glyph unicode="&#xe92a;" d="M224 864h128v-64h-128z" />
<glyph unicode="&#xe92b;" d="M672 864h128v-64h-128z" />
<glyph unicode="&#xe92c;" d="M672 608h128v-64h-128z" />
<glyph unicode="&#xe92d;" d="M704 256h128v-64h-128z" />
<glyph unicode="&#xe92e;" d="M528-112h480v384h-480zM720 240h96v-32h-96zM560 240h128v-64h160v64h128v-320h-416z" />
<glyph unicode="&#xe92f;" d="M912-16h32v-32h-32z" />
<glyph unicode="&#xe930;" d="M848-16h32v-32h-32z" />
<glyph unicode="&#xe931;" d="M784-16h32v-32h-32z" />
<glyph unicode="&#xe932;" d="M976 560h-32v320h-416v-320h-32v320h-416v-320h-32c-17.648 0-32-14.352-32-32v-32c0-17.648 14.352-32 32-32h84.208c-2.656-10.256-4.208-20.928-4.208-32 0-44.48 22.832-83.696 57.36-106.64-97.968-30.24-169.36-121.6-169.36-229.36 0-32.72 19.792-60.832 48-73.216v-134.784h432v208c0 107.76-71.392 199.12-169.36 229.36 34.528 22.944 57.36 62.16 57.36 106.64 0 11.072-1.552 21.744-4.208 32h596.208c17.648 0 32 14.352 32 32v32c0 17.648-14.352 32-32 32zM688 848h96v-32h-96zM560 848h96v-64h160v64h96v-288h-96v64h-160v-64h-96zM784 560h-96v32h96zM240 848h96v-32h-96zM112 848h96v-64h160v64h96v-288h-96v64h-160v-64h-96zM240 560v32h96v-32zM48 496v32h123.616c-10.4-9.152-19.296-19.952-26.304-32zM96 16h64v-96h-64zM248 128h-56v80h112v-80h80v-208h-192v96h56c30.88 0 56 25.12 56 56s-25.12 56-56 56zM336 185.376l25.376-25.376h-25.376zM464 96v-176h-48v230.624l-89.376 89.376h-166.624v-112h-48v-32h136c13.232 0 24-10.768 24-24s-10.768-24-24-24h-152c-26.464 0-48 21.536-48 48 0 114.688 93.312 208 208 208s208-93.312 208-208zM256 336c-52.944 0-96 43.056-96 96s43.056 96 96 96 96-43.056 96-96-43.056-96-96-96zM976 496h-609.312c-6.992 12.048-15.904 22.848-26.304 32h635.616z" />
<glyph unicode="&#xe933;" d="M784 48h160v-32h-160z" />
<glyph unicode="&#xe934;" d="M65.622-119.293h-39.492c-9.611 0-17.42 7.808-17.42 17.42v889.451c0 9.62 7.808 17.42 17.42 17.42h39.492c9.611 0 17.42-7.8 17.42-17.42v-889.434c0-9.628-7.808-17.437-17.42-17.437z" />
<glyph unicode="&#xe935;" d="M65.622-128.003h-39.492c-14.409 0-26.13 11.729-26.13 26.13v889.451c0 14.409 11.721 26.13 26.13 26.13h39.492c14.409 0 26.13-11.721 26.13-26.13v-889.451c0-14.4-11.721-26.13-26.13-26.13zM26.13 796.287c-4.789 0-8.71-3.904-8.71-8.71v-889.451c0-4.806 3.921-8.71 8.71-8.71h39.492c4.789 0 8.71 3.904 8.71 8.71v889.451c0 4.806-3.921 8.71-8.71 8.71z" />
<glyph unicode="&#xe936;" d="M289.9-119.293h-39.492c-9.611 0-17.42 7.808-17.42 17.42v889.451c0 9.62 7.808 17.42 17.42 17.42h39.492c9.611 0 17.42-7.8 17.42-17.42v-889.434c0-9.628-7.808-17.437-17.42-17.437z" />
<glyph unicode="&#xe937;" d="M289.9-128.003h-39.492c-14.409 0-26.13 11.729-26.13 26.13v889.451c0 14.409 11.721 26.13 26.13 26.13h39.492c14.409 0 26.13-11.721 26.13-26.13v-889.451c0-14.4-11.721-26.13-26.13-26.13zM250.408 796.287c-4.789 0-8.71-3.904-8.71-8.71v-889.451c0-4.806 3.921-8.71 8.71-8.71h39.492c4.789 0 8.71 3.904 8.71 8.71v889.451c0 4.806-3.921 8.71-8.71 8.71z" />
<glyph unicode="&#xe938;" d="M83.041 378.232h633.642v-70.776h-633.642z" />
<glyph unicode="&#xe939;" d="M716.683 298.763h-633.642c-4.806 0-8.71 3.904-8.71 8.71v70.776c0 4.814 3.904 8.71 8.71 8.71h633.642c4.806 0 8.71-3.896 8.71-8.71v-70.776c0-4.806-3.904-8.71-8.71-8.71zM91.751 316.182h616.222v53.356h-616.222z" />
<glyph unicode="&#xe93a;" d="M83.041 717.916h633.642v-70.776h-633.642z" />
<glyph unicode="&#xe93b;" d="M716.683 638.447h-633.642c-4.806 0-8.71 3.904-8.71 8.71v70.776c0 4.814 3.904 8.71 8.71 8.71h633.642c4.806 0 8.71-3.896 8.71-8.71v-70.776c0-4.806-3.904-8.71-8.71-8.71zM91.751 655.867h616.222v53.356h-616.222z" />
<glyph unicode="&#xe93c;" d="M83.041 38.547h633.642v-70.776h-633.642z" />
<glyph unicode="&#xe93d;" d="M716.683-40.922h-633.642c-4.806 0-8.71 3.904-8.71 8.71v70.776c0 4.814 3.904 8.71 8.71 8.71h633.642c4.806 0 8.71-3.896 8.71-8.71v-70.776c0-4.806-3.904-8.71-8.71-8.71zM91.751-23.502h616.222v53.356h-616.222z" />
<glyph unicode="&#xe93e;" d="M773.595-119.293h-39.492c-9.62 0-17.42 7.808-17.42 17.42v889.451c0 9.62 7.8 17.42 17.42 17.42h39.492c9.611 0 17.42-7.8 17.42-17.42v-889.434c0-9.628-7.808-17.437-17.42-17.437z" />
<glyph unicode="&#xe93f;" d="M773.595-128.003h-39.492c-14.409 0-26.13 11.729-26.13 26.13v889.451c0 14.409 11.721 26.13 26.13 26.13h39.492c14.4 0 26.13-11.721 26.13-26.13v-889.451c0-14.4-11.729-26.13-26.13-26.13zM734.103 796.287c-4.789 0-8.71-3.904-8.71-8.71v-889.451c0-4.806 3.921-8.71 8.71-8.71h39.492c4.789 0 8.71 3.904 8.71 8.71v889.451c0 4.806-3.921 8.71-8.71 8.71z" />
<glyph unicode="&#xe940;" d="M997.874-119.293h-39.492c-9.62 0-17.42 7.808-17.42 17.42v889.451c0 9.62 7.8 17.42 17.42 17.42h39.492c9.611 0 17.42-7.8 17.42-17.42v-889.434c0-9.628-7.808-17.437-17.42-17.437z" />
<glyph unicode="&#xe941;" d="M997.874-128.003h-39.492c-14.409 0-26.13 11.729-26.13 26.13v889.451c0 14.409 11.721 26.13 26.13 26.13h39.492c14.4 0 26.13-11.721 26.13-26.13v-889.451c0-14.4-11.729-26.13-26.13-26.13zM958.382 796.287c-4.789 0-8.71-3.904-8.71-8.71v-889.451c0-4.806 3.921-8.71 8.71-8.71h39.492c4.789 0 8.71 3.904 8.71 8.71v889.451c0 4.806-3.921 8.71-8.71 8.71z" />
<glyph unicode="&#xe942;" d="M940.962 298.763h-149.947c-4.814 0-8.71 3.904-8.71 8.71v70.776c0 4.814 3.896 8.71 8.71 8.71h149.947c4.806 0 8.71-3.896 8.71-8.71v-70.776c0-4.806-3.904-8.71-8.71-8.71zM799.724 316.182h132.528v53.356h-132.528z" />
<glyph unicode="&#xe943;" d="M940.962 638.396h-149.947c-4.814 0-8.71 3.904-8.71 8.71v70.776c0 4.806 3.896 8.71 8.71 8.71h149.947c4.806 0 8.71-3.904 8.71-8.71v-70.776c0-4.806-3.904-8.71-8.71-8.71zM799.724 655.816h132.528v53.356h-132.528z" />
<glyph unicode="&#xe944;" d="M940.962-40.922h-149.947c-4.814 0-8.71 3.904-8.71 8.71v70.776c0 4.814 3.896 8.71 8.71 8.71h149.947c4.806 0 8.71-3.896 8.71-8.71v-70.776c0-4.806-3.904-8.71-8.71-8.71zM799.724-23.502h132.528v53.356h-132.528z" />
<glyph unicode="&#xe945;" d="M499.286 234.281h216.088v-195.734h-216.088z" />
<glyph unicode="&#xe946;" d="M715.373 29.837h-216.071c-4.806 0-8.71 3.904-8.71 8.71v195.734c0 4.806 3.904 8.71 8.71 8.71h216.071c4.806 0 8.71-3.904 8.71-8.71v-195.717c0-4.823-3.904-8.727-8.71-8.727zM508.012 47.257h198.651v178.314h-198.651z" />
<glyph unicode="&#xe947;" d="M440.749 234.281h216.096v-195.734h-216.096z" />
<glyph unicode="&#xe948;" d="M475.589 199.441h181.257v34.839h-216.096v-195.734h34.839z" />
<glyph unicode="&#xe949;" d="M656.828 29.837h-216.079c-4.806 0-8.71 3.904-8.71 8.71v195.734c0 4.806 3.904 8.71 8.71 8.71h216.079c4.806 0 8.71-3.904 8.71-8.71v-195.717c0-4.823-3.887-8.727-8.71-8.727zM449.459 47.257h198.66v178.314h-198.66z" />
<glyph unicode="&#xe94a;" d="M524.718 234.281h48.168v-65.239h-48.168z" />
<glyph unicode="&#xe94b;" d="M572.885 160.332h-48.185c-4.806 0-8.71 3.904-8.71 8.71v65.239c0 4.806 3.904 8.71 8.71 8.71h48.185c4.806 0 8.71-3.904 8.71-8.71v-65.239c0-4.823-3.904-8.71-8.71-8.71zM533.41 177.752h30.765v47.819h-30.765z" />
<glyph unicode="&#xe94c;" d="M365.848 573.965h216.096v-195.734h-216.096z" />
<glyph unicode="&#xe94d;" d="M581.944 369.522h-216.096c-4.806 0-8.71 3.904-8.71 8.71v195.734c0 4.806 3.904 8.71 8.71 8.71h216.071c4.814 0 8.71-3.904 8.71-8.71v-195.717c0.026-4.823-3.879-8.727-8.684-8.727zM374.558 386.941h198.651v178.314h-198.651z" />
<glyph unicode="&#xe94e;" d="M307.32 573.965h216.088v-195.734h-216.088z" />
<glyph unicode="&#xe94f;" d="M342.159 539.126h181.248v34.839h-216.088v-195.734h34.839z" />
<glyph unicode="&#xe950;" d="M523.391 369.522h-216.071c-4.806 0-8.71 3.904-8.71 8.71v195.734c0 4.806 3.904 8.71 8.71 8.71h216.071c4.806 0 8.71-3.904 8.71-8.71v-195.717c0-4.823-3.879-8.727-8.71-8.727zM316.030 386.941h198.651v178.314h-198.651z" />
<glyph unicode="&#xe951;" d="M391.28 573.965h48.168v-65.239h-48.168z" />
<glyph unicode="&#xe952;" d="M439.448 500.016h-48.185c-4.806 0-8.71 3.904-8.71 8.71v65.239c0 4.806 3.904 8.71 8.71 8.71h48.185c4.806 0 8.71-3.904 8.71-8.71v-65.239c0-4.823-3.904-8.71-8.71-8.71zM399.973 517.436h30.765v47.819h-30.765z" />
<glyph unicode="&#xe953;" d="M141.569 234.281h216.096v-195.734h-216.096z" />
<glyph unicode="&#xe954;" d="M357.665 29.837h-216.096c-4.806 0-8.71 3.904-8.71 8.71v195.734c0 4.806 3.904 8.71 8.71 8.71h216.096c4.806 0 8.71-3.904 8.71-8.71v-195.717c0-4.823-3.904-8.727-8.71-8.727zM150.279 47.257h198.677v178.314h-198.677z" />
<glyph unicode="&#xe955;" d="M83.041 234.281h216.088v-195.734h-216.088z" />
<glyph unicode="&#xe956;" d="M117.881 199.441h181.248v34.839h-216.088v-195.734h34.839z" />
<glyph unicode="&#xe957;" d="M299.112 29.837h-216.071c-4.806 0-8.71 3.904-8.71 8.71v195.734c0 4.806 3.904 8.71 8.71 8.71h216.071c4.806 0 8.71-3.904 8.71-8.71v-195.717c0-4.823-3.879-8.727-8.71-8.727zM91.751 47.257h198.651v178.314h-198.651z" />
<glyph unicode="&#xe958;" d="M167.001 234.281h48.168v-65.239h-48.168z" />
<glyph unicode="&#xe959;" d="M215.169 160.332h-48.185c-4.806 0-8.71 3.904-8.71 8.71v65.239c0 4.806 3.904 8.71 8.71 8.71h48.185c4.806 0 8.71-3.904 8.71-8.71v-65.239c0-4.823-3.904-8.71-8.71-8.71zM175.694 177.752h30.765v47.819h-30.765z" />
<glyph unicode="&#xe95a;" d="M458.399 887.29h216.096v-169.357h-216.096z" />
<glyph unicode="&#xe95b;" d="M674.478 709.206h-216.079c-4.806 0-8.71 3.904-8.71 8.71v169.374c0 4.806 3.904 8.71 8.71 8.71h216.079c4.806 0 8.71-3.904 8.71-8.71v-169.357c0-4.823-3.887-8.727-8.71-8.727zM467.108 726.626h198.659v151.955h-198.659z" />
<glyph unicode="&#xe95c;" d="M399.871 887.29h216.088v-169.357h-216.088z" />
<glyph unicode="&#xe95d;" d="M434.693 852.451h181.248v34.839h-216.088v-169.374h34.839z" />
<glyph unicode="&#xe95e;" d="M615.941 709.206h-216.071c-4.806 0-8.71 3.904-8.71 8.71v169.374c0 4.806 3.904 8.71 8.71 8.71h216.071c4.806 0 8.71-3.904 8.71-8.71v-169.357c0-4.823-3.904-8.727-8.71-8.727zM408.581 726.626h198.651v151.955h-198.651z" />
<glyph unicode="&#xe95f;" d="M483.814 887.29h48.168v-62.713h-48.168z" />
<glyph unicode="&#xe960;" d="M531.981 815.868h-48.185c-4.806 0-8.71 3.904-8.71 8.71v62.713c0 4.806 3.904 8.71 8.71 8.71h48.185c4.806 0 8.71-3.904 8.71-8.71v-62.713c0-4.823-3.887-8.71-8.71-8.71zM492.523 833.287h30.765v45.293h-30.765z" />
<glyph unicode="&#xe961;" d="M522.673 799.22h100.141c38.344 0 69.422-31.078 69.422-69.422v-781.017c0-38.344-31.078-69.422-69.422-69.422h-555.392c-38.336 0-69.422 31.078-69.422 69.422v781.017c0 38.344 31.086 69.422 69.422 69.422z" />
<glyph unicode="&#xe962;" d="M534.736 747.157h64.211c19.984-0.109 36.156-16.281 36.258-36.258v-743.221c-0.102-20-16.305-36.18-36.305-36.258h-507.556c-19.984 0.109-36.156 16.281-36.258 36.258v743.221c0.102 19.977 16.273 36.149 36.258 36.258z" />
<glyph unicode="&#xe963;" d="M526.665 729.798h61.438c19.148-0.055 34.656-15.563 34.711-34.711v-711.595c-0.055-19.148-15.563-34.656-34.711-34.711h-485.97c-19.141 0.055-34.649 15.563-34.711 34.711v711.595c0.063 19.148 15.57 34.656 34.711 34.711z" />
<glyph unicode="&#xe964;" d="M536.033 764.509c0-38.336-31.078-69.422-69.422-69.422h-242.985c-38.336 0-69.422 31.086-69.422 69.422 0 28.758 23.313 52.070 52.070 52.070 19.172 0 34.711 15.539 34.711 34.711s15.539 34.711 34.711 34.711h138.844c19.172 0 34.719-15.539 34.719-34.711s15.539-34.711 34.711-34.711c28.75 0 52.063-23.313 52.063-52.070z" />
<glyph unicode="&#xe965;" d="M414.54 747.157h-138.844c-9.586 0-17.359 7.766-17.359 17.352s7.773 17.359 17.359 17.359h138.844c9.586 0 17.359-7.773 17.359-17.359s-7.773-17.352-17.359-17.352z" />
<glyph unicode="&#xe966;" d="M154.203 122.343c-7.016 0-13.344 4.227-16.031 10.711s-1.203 13.945 3.758 18.914l69.43 69.422c6.805 6.578 17.633 6.484 24.328-0.211s6.789-17.523 0.211-24.328l-69.422-69.43c-3.258-3.25-7.672-5.078-12.273-5.078z" />
<glyph unicode="&#xe967;" d="M223.626 122.343c-4.602 0-9.016 1.828-12.266 5.078l-69.43 69.43c-6.578 6.805-6.477 17.633 0.211 24.328 6.695 6.695 17.523 6.789 24.336 0.211l69.422-69.422c4.961-4.969 6.445-12.43 3.758-18.914-2.68-6.484-9.008-10.711-16.031-10.711z" />
<glyph unicode="&#xe968;" d="M553.392 0.851c-9.586 0-17.359 7.766-17.359 17.352v52.070c0 9.586 7.773 17.352 17.359 17.352s17.352-7.766 17.352-17.352v-52.070c0-9.586-7.766-17.352-17.352-17.352z" />
<glyph unicode="&#xe969;" d="M414.54 157.054h-121.485c-9.586 0-17.359 7.766-17.359 17.352s7.773 17.359 17.359 17.359h121.485c9.586 0 17.359-7.773 17.359-17.359s-7.773-17.352-17.359-17.352z" />
<glyph unicode="&#xe96a;" d="M188.915 590.954h-34.711c-9.586 0-17.359 7.766-17.359 17.352s7.773 17.359 17.359 17.359h34.711c9.586 0 17.359-7.773 17.359-17.359s-7.773-17.352-17.359-17.352z" />
<glyph unicode="&#xe96b;" d="M536.033 590.954h-260.337c-9.586 0-17.359 7.766-17.359 17.352s7.773 17.359 17.359 17.359h260.337c9.586 0 17.359-7.773 17.359-17.359s-7.773-17.352-17.359-17.352z" />
<glyph unicode="&#xe96c;" d="M188.915 521.524h-34.711c-9.586 0-17.359 7.773-17.359 17.359s7.773 17.359 17.359 17.359h34.711c9.586 0 17.359-7.773 17.359-17.359s-7.773-17.359-17.359-17.359z" />
<glyph unicode="&#xe96d;" d="M536.033 521.524h-260.337c-9.586 0-17.359 7.773-17.359 17.359s7.773 17.359 17.359 17.359h260.337c9.586 0 17.359-7.773 17.359-17.359s-7.773-17.359-17.359-17.359z" />
<glyph unicode="&#xe96e;" d="M188.915 452.102h-34.711c-9.586 0-17.359 7.773-17.359 17.359s7.773 17.352 17.359 17.352h34.711c9.586 0 17.359-7.766 17.359-17.352s-7.773-17.359-17.359-17.359z" />
<glyph unicode="&#xe96f;" d="M536.033 452.102h-260.337c-9.586 0-17.359 7.773-17.359 17.359s7.773 17.352 17.359 17.352h260.337c9.586 0 17.359-7.766 17.359-17.352s-7.773-17.359-17.359-17.359z" />
<glyph unicode="&#xe970;" d="M188.915 382.68h-34.711c-9.586 0-17.359 7.773-17.359 17.352 0 9.586 7.773 17.359 17.359 17.359h34.711c9.586 0 17.359-7.773 17.359-17.359 0-9.578-7.773-17.352-17.359-17.352z" />
<glyph unicode="&#xe971;" d="M536.033 382.68h-260.337c-9.586 0-17.359 7.773-17.359 17.352 0 9.586 7.773 17.359 17.359 17.359h260.337c9.586 0 17.359-7.773 17.359-17.359 0-9.578-7.773-17.352-17.359-17.352z" />
<glyph unicode="&#xe972;" d="M188.915 313.258h-34.711c-9.586 0-17.359 7.766-17.359 17.352s7.773 17.359 17.359 17.359h34.711c9.586 0 17.359-7.773 17.359-17.359s-7.773-17.352-17.359-17.352z" />
<glyph unicode="&#xe973;" d="M536.033 313.258h-260.337c-9.586 0-17.359 7.766-17.359 17.352s7.773 17.359 17.359 17.359h260.337c9.586 0 17.359-7.773 17.359-17.359s-7.773-17.352-17.359-17.352z" />
<glyph unicode="&#xe974;" d="M429.954 57.327c-7.016 0-13.344 4.227-16.031 10.711s-1.203 13.945 3.766 18.914l24.625 24.539c6.813 6.578 17.633 6.484 24.328-0.211s6.789-17.523 0.211-24.328l-24.539-24.539c-3.273-3.281-7.727-5.109-12.359-5.086z" />
<glyph unicode="&#xe975;" d="M982.19 626.954c27.117-27.109 27.117-71.070 0-98.18l-134.993-135c-6.781-6.773-17.773-6.773-24.547 0l-73.633 73.641c-6.781 6.773-6.781 17.766 0 24.547l134.993 134.993c27.117 27.109 71.070 27.109 98.18 0z" />
<glyph unicode="&#xe976;" d="M749.025 467.406l73.633-73.633-220.907-220.907-73.633 73.641z" />
<glyph unicode="&#xe977;" d="M528.118 246.507l-76.367-126.391c-3.898-6.797-2.758-15.367 2.789-20.906 5.539-5.539 14.109-6.68 20.906-2.781l126.383 76.367z" />
<glyph unicode="&#xe978;" d="M896.307 327.328c-7.016 0.008-13.344 4.234-16.031 10.719-2.68 6.484-1.195 13.945 3.766 18.914l98.164 98.164c6.773 6.773 6.773 17.758 0 24.539l-24.539 24.508c-6.578 6.813-6.484 17.633 0.211 24.328s17.516 6.789 24.328 0.211l24.539-24.539c9.766-9.766 15.258-23.008 15.258-36.82s-5.492-27.055-15.258-36.82l-98.164-98.188c-3.258-3.234-7.672-5.047-12.273-5.016z" />
<glyph unicode="&#xe979;" d="M0 365.038l493.038-493.038 530.962 549.923v474.077h-474.077l-549.923-530.962z" />
<glyph unicode="&#xe97a;" d="M139.591 377.913l322.399 303.389 24.21-25.728-322.399-303.389-24.21 25.728z" />
<glyph unicode="&#xe97b;" d="M239.651 276.321l-43.167 44.703 322.383 303.386 43.149-44.685-322.366-303.404z" />
<glyph unicode="&#xe97c;" d="M272.349 245.166l322.399 303.389 24.21-25.728-322.397-303.389-24.212 25.728z" />
<glyph unicode="&#xe97d;" d="M405.067 112.525l322.399 303.389 24.21-25.728-322.399-303.389-24.21 25.728z" />
<glyph unicode="&#xe97e;" d="M461.972 55.541l322.386 303.378 24.21-25.728-322.383-303.378-24.212 25.728z" />
<glyph unicode="&#xe97f;" d="M372.401 143.59l-43.167 44.685 322.366 303.404 43.167-44.703-322.366-303.386z" />
<glyph unicode="&#xe980;" d="M891.251 688.711c-41.176-0.040-74.589 33.311-74.628 74.487s33.311 74.589 74.487 74.628 74.589-33.311 74.628-74.487c0-0.029 0-0.060 0-0.088-0.049-41.126-33.362-74.463-74.487-74.54v0zM891.251 802.498c-21.676 0.040-39.278-17.501-39.318-39.177s17.501-39.278 39.177-39.318c21.676-0.040 39.278 17.501 39.318 39.177 0 0.024 0 0.046 0 0.071-0.057 21.612-17.565 39.119-39.177 39.177v0.071z" />
<glyph unicode="&#xe981;" d="M480.552 769.75l24.969 24.969 37.928-37.928-24.969-24.969-37.928 37.928z" />
<glyph unicode="&#xe982;" d="M556.409 693.923l24.962 24.973 37.934-37.919-24.962-24.973-37.934 37.919z" />
<glyph unicode="&#xe983;" d="M632.26 617.969l24.971 24.964 37.921-37.932-24.971-24.964-37.921 37.932z" />
<glyph unicode="&#xe984;" d="M708.116 542.179l24.971 24.964 37.921-37.932-24.971-24.964-37.921 37.932z" />
<glyph unicode="&#xe985;" d="M783.951 466.319l24.964 24.971 37.919-37.91-24.964-24.971-37.919 37.91z" />
<glyph unicode="&#xe986;" d="M859.825 390.482l24.969 24.969 37.928-37.928-24.969-24.969-37.928 37.928z" />
<glyph unicode="&#xe987;" d="M862.179 132.681l144.761 198.89c22.746 31.25 22.746 73.605 0 104.855l-144.759 198.89c-16.767 23.037-43.539 36.664-72.033 36.664h-732.934c-31.598 0-57.214-25.616-57.214-57.214v-461.54c0-31.598 25.614-57.212 57.212-57.212h732.936c28.491 0.002 55.266 13.632 72.031 36.667z" />
<glyph unicode="&#xe988;" d="M70.428 601.522h593.376v-435.106h-593.376v435.106z" />
<glyph unicode="&#xe989;" d="M974.238 384.156c0-27.183-22.036-49.218-49.218-49.218s-49.218 22.036-49.218 49.218c0 27.183 22.036 49.218 49.218 49.218s49.218-22.036 49.218-49.218z" />
<glyph unicode="&#xe98a;" d="M106.466 555.465h15.954v-342.93h-15.954v342.93z" />
<glyph unicode="&#xe98b;" d="M145.333 555.465h26.836v-342.93h-26.836v342.93z" />
<glyph unicode="&#xe98c;" d="M184.213 555.465h15.954v-342.93h-15.954v342.93z" />
<glyph unicode="&#xe98d;" d="M223.059 555.465h15.954v-342.93h-15.954v342.93z" />
<glyph unicode="&#xe98e;" d="M275.266 555.465h21.231v-342.93h-21.231v342.93z" />
<glyph unicode="&#xe98f;" d="M248.356 555.465h15.954v-342.93h-15.954v342.93z" />
<glyph unicode="&#xe990;" d="M310.334 555.465h15.954v-342.93h-15.954v342.93z" />
<glyph unicode="&#xe991;" d="M339.7 555.465h15.954v-342.93h-15.954v342.93z" />
<glyph unicode="&#xe992;" d="M378.568 555.465h15.954v-342.93h-15.954v342.93z" />
<glyph unicode="&#xe993;" d="M417.462 555.465h15.954v-342.93h-15.954v342.93z" />
<glyph unicode="&#xe994;" d="M456.318 555.465h26.763v-342.93h-26.763v342.93z" />
<glyph unicode="&#xe995;" d="M495.197 555.465h15.954v-342.93h-15.954v342.93z" />
<glyph unicode="&#xe996;" d="M534.068 555.465h15.954v-342.93h-15.954v342.93z" />
<glyph unicode="&#xe997;" d="M572.888 555.465h15.954v-342.93h-15.954v342.93z" />
<glyph unicode="&#xe998;" d="M611.865 555.465h15.954v-342.93h-15.954v342.93z" />
<glyph unicode="&#xe999;" d="M106.466 292.85h521.353v-18.025h-521.353v18.025z" />
<glyph unicode="&#xe99a;" d="M391.484-16.602l-178.141-109.633c-9.477-5.828-20.906 3.813-16.734 14.141l63.086 156.445z" />
<glyph unicode="&#xe99b;" d="M816.828-126.235l-178.109 109.633 131.781 60.953 63.086-156.445c4.148-10.328-7.281-19.969-16.758-14.141z" />
<glyph unicode="&#xe99c;" d="M976.664 426.75c0-254.297-206.149-460.445-460.445-460.445s-460.445 206.149-460.445 460.445 206.149 460.445 460.445 460.445 460.445-206.149 460.445-460.445z" />
<glyph unicode="&#xe99d;" d="M259.695 44.351l131.789-60.953-61.859-38.070c-32.086 12.438-62.586 27.992-91.188 46.281z" />
<glyph unicode="&#xe99e;" d="M792.219-9.508c-28.5-18.086-58.875-33.43-90.797-45.68l-62.703 38.586 131.781 60.953z" />
<glyph unicode="&#xe99f;" d="M976.672 426.75c0-254.305-206.149-460.438-460.453-460.438-170.336 0-319.047 92.492-398.703 230 36.648-21.211 76.461-37.531 118.578-48.023 71.547-71.984 170.633-116.523 280.125-116.523 218.141 0 394.992 176.844 394.992 394.984 0 109.477-44.547 208.555-116.508 280.078-10.492 42.141-26.813 81.977-48.047 118.625 137.508-79.633 230.016-228.367 230.016-398.703z" />
<glyph unicode="&#xe9a0;" d="M911.211 426.75c0-218.141-176.852-394.984-394.992-394.984-109.492 0-208.578 44.539-280.125 116.523 35.813-8.961 73.289-13.711 111.859-13.711 41.992 0 82.68 5.617 121.336 16.156 17.461-3.406 35.5-5.188 53.961-5.188 155.305 0 281.203 125.898 281.203 281.203 0 22.461-2.633 44.313-7.609 65.266 7.57 33.117 11.57 67.578 11.57 103 0 38.555-4.75 76.023-13.711 111.82 71.961-71.531 116.508-170.609 116.508-280.086z" />
<glyph unicode="&#xe9a1;" d="M808.406 595.016c0-254.305-206.149-460.438-460.453-460.438-38.57 0-76.047 4.75-111.859 13.711-70.984 71.414-114.867 169.797-114.867 278.461 0 218.141 176.852 394.984 394.992 394.984 108.664 0 207.063-43.875 278.484-114.906 8.961-35.789 13.703-73.266 13.703-111.813z" />
<glyph unicode="&#xe9a2;" d="M804.453 426.75c0-155.305-125.898-281.203-281.203-281.203-18.461 0-36.5 1.781-53.961 5.188 162.828 44.359 289.742 175.828 327.547 341.274 4.977-20.945 7.617-42.797 7.617-65.258z" />
<glyph unicode="&#xe9a3;" d="M796.836 492.015c-37.797-165.445-164.711-296.922-327.547-341.281-129.484 25.156-227.242 139.172-227.242 276.016 0 155.305 125.898 281.203 281.203 281.203 132.844 0 244.164-92.094 273.586-215.938z" />
<glyph unicode="&#xe9a4;" d="M684.484 426.75c0-92.93-75.336-168.266-168.266-168.266s-168.266 75.336-168.266 168.266 75.336 168.266 168.266 168.266 168.266-75.336 168.266-168.266z" />
<glyph unicode="&#xe9a5;" d="M564.898 426.75c0-26.883-21.797-48.68-48.68-48.68s-48.672 21.797-48.672 48.68 21.789 48.68 48.672 48.68 48.68-21.797 48.68-48.68z" />
<glyph unicode="&#xe9a6;" d="M516.219 411.195c-3.984 0-7.961 1.523-11 4.555l-452.664 452.672c-6.070 6.070-6.070 15.922 0 21.992 6.078 6.070 15.922 6.070 22 0l452.664-452.664c6.070-6.078 6.070-15.922 0-22-3.039-3.031-7.023-4.555-11-4.555z" />
<glyph unicode="&#xe9a7;" d="M121.055 807.625h-57.266c-8.594 0-15.555 6.961-15.555 15.555 0 8.586 6.961 15.547 15.555 15.547h41.719v41.719c0 8.594 6.961 15.555 15.547 15.555 8.594 0 15.555-6.961 15.555-15.555v-57.273c0-8.586-6.961-15.547-15.555-15.547z" />
<glyph unicode="&#xe9a8;" d="M169.531 759.141h-64.266c-8.586 0-15.555 6.969-15.555 15.555 0 8.594 6.961 15.555 15.555 15.555h48.719v48.711c0 8.594 6.961 15.555 15.555 15.555 8.586 0 15.547-6.961 15.547-15.555v-64.266c0-8.586-6.961-15.555-15.555-15.555z" />
<glyph unicode="&#xe9a9;" d="M64 800h896v-544h-896z" />
<glyph unicode="&#xe9aa;" d="M576 416h96v-96h-96z" />
<glyph unicode="&#xe9ab;" d="M352 416h96v-96h-96z" />
<glyph unicode="&#xe9ac;" d="M128 416h96v-96h-96z" />
<glyph unicode="&#xe9ad;" d="M800 576h96v-96h-96z" />
<glyph unicode="&#xe9ae;" d="M576 576h96v-96h-96z" />
<glyph unicode="&#xe9af;" d="M128 576h96v-96h-96z" />
<glyph unicode="&#xe9b0;" d="M800 736h96v-96h-96z" />
<glyph unicode="&#xe9b1;" d="M352 736h96v-96h-96z" />
<glyph unicode="&#xe9b2;" d="M992 240v-32c0-8.8-7.2-16-16-16h-928c-8.8 0-16 7.2-16 16v32c0 8.8 7.2 16 16 16h928c8.8 0 16-7.2 16-16z" />
<glyph unicode="&#xe9b3;" d="M992 848v-32c0-8.8-7.2-16-16-16h-928c-8.8 0-16 7.2-16 16v32c0 8.8 7.2 16 16 16h928c8.8 0 16-7.2 16-16z" />
<glyph unicode="&#xe9b4;" d="M784 32v-64c0-35.36-121.76-64-272-64s-272 28.64-272 64v64c0-35.36 121.76-64 272-64s272 28.64 272 64z" />
<glyph unicode="&#xe9b5;" d="M592 93.12h-160c-111.2-8-192-32.32-192-61.12 0-35.36 121.76-64 272-64s272 28.64 272 64c0 28.8-80.8 53.12-192 61.12z" />
<glyph unicode="&#xe9b6;" d="M592 93.12v-61.12h-160v160h160z" />
<glyph unicode="&#xe9b7;" d="M128 736h96v-96h-96z" />
<glyph unicode="&#xe9b8;" d="M1008 816v32c0 17.648-14.352 32-32 32h-928c-17.648 0-32-14.352-32-32v-32c0-17.648 14.352-32 32-32v-512c-17.648 0-32-14.352-32-32v-32c0-17.648 14.352-32 32-32h368v-68.064c-67.664-5.92-192-23.872-192-75.936v-64c0-63.152 181.024-80 288-80s288 16.848 288 80v64c0 52.064-124.336 70.032-192 75.936v68.064h368c17.648 0 32 14.352 32 32v32c0 17.648-14.352 32-32 32v512c17.648 0 32 14.352 32 32zM48 848h928l0.016-32h-928.016zM528 272v512h192v-512zM496 784v-512h-192v512zM80 784h192v-512h-192zM512-80c-159.872 0-252.976 31.76-256 48v23.792c56.784-30.512 176.704-39.792 256-39.792s199.232 9.28 256 39.792v-23.712c-3.024-16.32-96.128-48.080-256-48.080zM768 32.080c-3.024-16.32-96.128-48.080-256-48.080-159.824 0-252.912 31.744-256 47.904v0.032c1.536 8.064 44.24 33.44 160 43.856v-59.792h192v59.792c115.824-10.416 158.512-35.808 160-43.712zM576 48h-128v128h128zM976.016 208h-928.016v32h928zM944 272h-192v512h192z" />
<glyph unicode="&#xe9b9;" d="M112 752v-128h128v128zM208 656h-64v64h64z" />
<glyph unicode="&#xe9ba;" d="M464 752h-128v-128h128zM432 656h-64v64h64z" />
<glyph unicode="&#xe9bb;" d="M912 752h-128v-128h128zM880 656h-64v64h64z" />
<glyph unicode="&#xe9bc;" d="M112 464h128v128h-128zM144 560h64v-64h-64z" />
<glyph unicode="&#xe9bd;" d="M560 592v-128h128v128zM656 496h-64v64h64z" />
<glyph unicode="&#xe9be;" d="M912 464v128h-128v-128zM816 560h64v-64h-64z" />
<glyph unicode="&#xe9bf;" d="M560 304h128v128h-128zM592 400h64v-64h-64z" />
<glyph unicode="&#xe9c0;" d="M464 304v128h-128v-128zM368 400h64v-64h-64z" />
<glyph unicode="&#xe9c1;" d="M112 304h128v128h-128zM144 400h64v-64h-64z" />
</font>
</defs>
</svg>
